Filecrypt zeigt vereinzelt Files als "n/a". Die Downloads sind trotzdem komplett.

DNS SERVER AENDERNum der staatlichen Zensur zu umgehen. Sollten wir von eurem Provider geseprrt werden, nutzt den TOR BROWSER oder ändert euren DNS SERVER.

Filmwünsche können bei uns im Forum abgegeben werden

Wir Speichern Nicht




 
 
 
Top Releases
Sicario.2.Soldado.Sicario.Da...
Mission.Impossible.Fallout.I...
Jim.Knopf.und.Lukas.der.Loko...
The.Keeping.Hours.2017.Germa...
Der.die.Zeichen.liest.The.St...
Operation.Chromite.2016.Germ...
Jim.Knopf.und.Lukas.der.Loko...
Sicario.2.Soldado.2018.Germa...
Sicario.2.Soldado.2018.Germa...
Ein.Kind.zur.Zeit.German.DL....

Cinedubs
Venom.TS.LD.German.720p.x264...
Predator.Upgrade.German.AC3L...
Predator.Upgrade.German.AC3L...
The.Nun.German.DL.AC3.Dubbed...
The.Nun.German.DL.AC3.Dubbed...
The.Happytime.Murders.Kein.S...
The.Happytime.Murders.Kein.S...
Peppermint.Angel.of.Vengeanc...
Peppermint.Angel.of.Vengeanc...
The.Nun.German.AC3D.DL.1080p...

Neuerscheinungen 2017-18
Megalodon.Die.Bestie.aus.der...
Megalodon.Die.Bestie.aus.der...
Gotti.2018.German.DL.AC3.5.1...
Gotti.2018.German.DL.AC3.5.1...
Wildling.2018.German.RETAiL....
Wildling.2018.German.RETAiL....
Bent.Korruption.kennt.keine....
Lord.Of.Illusions.GERMAN.199...
Lord.Of.Illusions.GERMAN.199...
Nell.1994.German.DL.1080p.Bl...

XXX
LethalHardcore.I.Ate.Cum.Fro...
LethalHardcore.I.Ate.Cum.Fro...
Hitzefrei.18.07.25.Aby.Actio...
NaughtyOffice.18.11.19.Nia.N...
MommyGotBoobs.14.08.18.Leigh...
Hitzefrei.18.07.27.Sina.Hot....
MetArt.18.11.20.Jia.Lissa.I....
MofosBSides.18.11.19.Liv.Rev...
MyDirtyMaid.18.11.20.Gabriel...
KarupsHA.18.11.19.Avery.Moon...
Interracial.Gangbanging.Slut...
Kinky.Submissive.Sluts.XXX.7...
Kinky.Submissive.Sluts.XXX.1...
ImmoralLive.18.11.20.Angel.W...
MilfHunter.18.11.19.Sydney.H...
NubileFilms.18.11.19.Alecia....
MySistersHotFriend.18.11.20....
Hitzefrei.18.07.30.Kim.Van.D...
HotLegsAndFeet.18.11.20.Oliv...
Lustery.E147.Vicky.And.Eric....

3D
The.Art.of.Flight.3D.2011.Ge...
The.End.Of.The.World.3D.2010...
The.First.Avenger.Civil.War....
Die.Unglaublichen.2.2018.3D....
Skyscraper.3D.2018.MULTi.COM...
Ant-Man.And.The.Wasp.3D.2018...
Ant.Man.and.the.Wasp.3D.2018...
Die.Unglaublichen.2.3D.2018....
Die.Unglaublichen.2.2018.3D....
Die.Unglaublichen.2.2018.3D....
Sharknado.6.The.Last.One.3D....
Deep.Kleine.Helden.der.Tiefs...
Deep.3D.2017.MULTI.COMPLETE....
Detective.Dee.und.die.Legend...
Detective.Dee.und.die.Legend...

Old_Stuff
Akte.X.S03.German.DTS.DL.108...
Dunkirk.1958.COMPLETE.BLURAY...
Das.Wunder.von.Manhattan.199...
The.Amazing.Spiderman.2.Rise...
Rise.of.the.Predator.2014.Ge...
Detective.Dee.und.das.Geheim...
Detective.Dee.Und.Der.Fluch....
Ghost.Rider.Spirit.of.Vengea...
Species.IV.Das.Erwachen.2007...
Species.IV.Das.Erwachen.2007...
Hotel.Transsilvanien.2012.Ge...
The.Dead.2010.German.DL.1080...
The.Dead.2.India.2013.German...
Britney.Spears.Live.The.Femm...
Buffy.The.Vampire.Slayer.199...

Filme
Killers.2014.German.DTS.1080...
Killers.2014.German.DTS.720p...
Jeepers.Creepers.2.GERMAN.20...
Jeepers.Creepers.2.GERMAN.20...
The.Walking.Dead.S09.GERMAN....
Marvels.Inhumans.S01.German....
Marvels.Inhumans.S01.German....
Homeland.S07.COMPLETE.German...
Homeland.S07.COMPLETE.German...
So.wie.wir.waren.1973.German...
Strasse.der.Gewalt.1975.Germ...
Strasse.der.Gewalt.1975.Germ...
Squirm.Invasion.der.Bestien....
Squirm.Invasion.der.Bestien....
Africa.addio.German.1966.DL....
Africa.addio.German.1966.DL....
Nell.1994.German.720p.BluRay...
Mission.Impossible.Fallout.2...
Our.Evil.2017.GERMAN.DL.1080...
The.Birdcage.-.Ein.Paradies....
The.Birdcage.Ein.Paradies.fu...
Sein.letzter.Kampf.aka.Last....
Faustrecht.Terror.an.der.Hig...
Mamma.Mia.Here.We.Go.Again.2...

 
 
Predator.Upgrade.German.AC3LD.DL.1080p.AmazonHD.h264-LameHD

Jahr: 2018
Genre: Action, Horror
Sprache: Deutsch AC3 | Englisch AC3
Laufzeit: 1h 46mn
Bitrate: 8 144 Kbps
Format: MKV
Größe: 6.08 GiB
Release:

Beschreibung:

Die Predators, eine hochgerüstete und technologisch weit überlegene Spezies von Alien-Jägern, sind zurück und sorgen auf der Erde für Ärger, weil ein kleiner Junge (Jacob Tremblay) ihnen versehentlich die Rückkehr ermöglicht hat. Doch dieses Mal sind die Invasoren noch gefährlicher, denn sie sind stärker und klüger, als jemals zuvor. Sie haben nämlich die DNA anderer Spezies verwendet, um sich genetisch hochzurüsten. Auf diese Weise haben sie bereits das All erobert. Nun wollen sie die Erde einnehmen. Eine chaotische Truppe von Ex-Soldaten, darunter Quinn McKenna (Boyd Holbrook), Traeger (Sterling K. Brown) und Coyle (Keegan-Michael Key) sowie eine Wissenschaftlerin (Olivia Munn), müssen sich schon bald für eine ultimative Jagd bereitstellen. Denn sie sind die einzige Hoffnung der Menschheit… 

 



Complete name                            : lame-predatorupgrade.amzn-1080.mkv
Format                                   : Matroska
Format version                           : Version 4 / Version 2
File size                                : 6.08 GiB
Duration                                 : 1h 46mn
Overall bit rate                         : 8 144 Kbps
Encoded date                             : UTC 2018-11-27 09:07:18
Writing application                      : mkvmerge v28.2.0 ('The Awakening') 64-bit
Writing library                          : libebml v1.3.6 + libmatroska v1.4.9
DURATION                                 : 01:45:22.185000000
NUMBER_OF_FRAMES                         : 1706
NUMBER_OF_BYTES                          : 43214
_STATISTICS_WRITING_APP                  : mkvmerge v28.2.0 ('The Awakening') 64-bit
_STATISTICS_WRITING_DATE_UTC             : 2018-11-27 09:07:18
_STATISTICS_TAGS                         : BPS DURATION NUMBER_OF_FRAMES NUMBER_OF_BYTES

Video
ID                                       : 1
Format                                   : AVC
Format/Info                              : Advanced Video Codec
Format profile                           : High@L4.0
Format settings, CABAC                   : Yes
Format settings, ReFrames                : 4 frames
Codec ID                                 : V_MPEG4/ISO/AVC
Duration                                 : 1h 46mn
Bit rate                                 : 7 118 Kbps
Width                                    : 1 920 pixels
Height                                   : 800 pixels
Display aspect ratio                     : 2.40:1
Frame rate mode                          : Constant
Frame rate                               : 23.976 fps
Color space                              : YUV
Chroma subsampling                       : 4:2:0
Bit depth                                : 8 bits
Scan type                                : Progressive
Bits/(Pixel*Frame)                       : 0.193
Stream size                              : 5.32 GiB (87%)
Default                                  : Yes
Forced                                   : No
Color primaries                          : BT.709
Transfer characteristics                 : BT.709
Matrix coefficients                      : BT.709

Audio #1
ID                                       : 2
Format                                   : AC-3
Format/Info                              : Audio Coding 3
Mode extension                           : CM (complete main)
Format settings, Endianness              : Big
Codec ID                                 : A_AC3
Duration                                 : 1h 46mn
Bit rate mode                            : Constant
Bit rate                                 : 224 Kbps
Channel(s)                               : 2 channels
Channel positions                        : Front: L R
Sampling rate                            : 48.0 KHz
Bit depth                                : 16 bits
Compression mode                         : Lossy
Stream size                              : 171 MiB (3%)
Language                                 : German
Default                                  : Yes
Forced                                   : No

Audio #2
ID                                       : 3
Format                                   : E-AC-3
Format/Info                              : Audio Coding 3
Format settings, Endianness              : Big
Codec ID                                 : A_EAC3
Duration                                 : 1h 46mn
Bit rate mode                            : Constant
Bit rate                                 : 640 Kbps
Channel(s)                               : 6 channels
Channel positions                        : Front: L C R, Side: L R, LFE
Sampling rate                            : 48.0 KHz
Compression mode                         : Lossy
Stream size                              : 490 MiB (8%)
Language                                 : English
Default                                  : No
Forced                                   : No

Text
ID                                       : 4
Format                                   : UTF-8
Codec ID                                 : S_TEXT/UTF8
Codec ID/Info                            : UTF-8 Plain Text
Title                                    : SDH
Language                                 : English
Default                                  : No
Forced                                   : No


Download:
Share Online Share OnlineShare OnlineShare Online
 

Kommentare