Filecrypt zeigt vereinzelt Files als "n/a". Die Downloads sind trotzdem komplett.

DNS SERVER AENDERNum der staatlichen Zensur zu umgehen. Sollten wir von eurem Provider geseprrt werden, nutzt den TOR BROWSER oder ändert euren DNS SERVER.

Filmwünsche können bei uns im Forum abgegeben werden

Wir Speichern Nicht




 
 
 
Top Releases
Sicario.2.Soldado.Sicario.Da...
Mission.Impossible.Fallout.I...
Jim.Knopf.und.Lukas.der.Loko...
The.Keeping.Hours.2017.Germa...
Der.die.Zeichen.liest.The.St...
Operation.Chromite.2016.Germ...
Jim.Knopf.und.Lukas.der.Loko...
Sicario.2.Soldado.2018.Germa...
Sicario.2.Soldado.2018.Germa...
Ein.Kind.zur.Zeit.German.DL....

Cinedubs
Venom.TS.LD.German.720p.x264...
Predator.Upgrade.German.AC3L...
Predator.Upgrade.German.AC3L...
The.Nun.German.DL.AC3.Dubbed...
The.Nun.German.DL.AC3.Dubbed...
The.Happytime.Murders.Kein.S...
The.Happytime.Murders.Kein.S...
Peppermint.Angel.of.Vengeanc...
Peppermint.Angel.of.Vengeanc...
The.Nun.German.AC3D.DL.1080p...

Neuerscheinungen 2017-18
Megalodon.Die.Bestie.aus.der...
Megalodon.Die.Bestie.aus.der...
Gotti.2018.German.DL.AC3.5.1...
Gotti.2018.German.DL.AC3.5.1...
Wildling.2018.German.RETAiL....
Wildling.2018.German.RETAiL....
Bent.Korruption.kennt.keine....
Lord.Of.Illusions.GERMAN.199...
Lord.Of.Illusions.GERMAN.199...
Nell.1994.German.DL.1080p.Bl...

XXX
Private.18.11.20.Jessica.Lin...
SapphicErotica.18.11.19.Anai...
PornstarsLikeItBig.18.11.19....
GloryHole.18.11.19.Barbie.Si...
PlumperPass.18.11.19.Alexxxi...
RKPrime.18.11.19.Brett.Rossi...
Hitzefrei.18.07.06.LadyKinky...
Pure18.18.11.20.Natalie.Broo...
ATKHairy.18.11.17.Elizabeth....
Nubiles.18.11.20.Lona.Giving...
PrivateSociety.18.11.18.Chec...
PlayboyPlus.18.11.20.Madison...
ATKGirlfriends.18.11.20.Vina...
HardX.18.11.20.Moka.Mora.Tak...
Private.Specials.185.Teenage...
PureTaboo.18.11.20.Kendra.Sp...
LethalHardcore.I.Ate.Cum.Fro...
LethalHardcore.I.Ate.Cum.Fro...
Hitzefrei.18.07.25.Aby.Actio...
NaughtyOffice.18.11.19.Nia.N...

3D
The.Art.of.Flight.3D.2011.Ge...
The.End.Of.The.World.3D.2010...
The.First.Avenger.Civil.War....
Die.Unglaublichen.2.2018.3D....
Skyscraper.3D.2018.MULTi.COM...
Ant-Man.And.The.Wasp.3D.2018...
Ant.Man.and.the.Wasp.3D.2018...
Die.Unglaublichen.2.3D.2018....
Die.Unglaublichen.2.2018.3D....
Die.Unglaublichen.2.2018.3D....
Sharknado.6.The.Last.One.3D....
Deep.Kleine.Helden.der.Tiefs...
Deep.3D.2017.MULTI.COMPLETE....
Detective.Dee.und.die.Legend...
Detective.Dee.und.die.Legend...

Old_Stuff
Akte.X.S03.German.DTS.DL.108...
Dunkirk.1958.COMPLETE.BLURAY...
Das.Wunder.von.Manhattan.199...
The.Amazing.Spiderman.2.Rise...
Rise.of.the.Predator.2014.Ge...
Detective.Dee.und.das.Geheim...
Detective.Dee.Und.Der.Fluch....
Ghost.Rider.Spirit.of.Vengea...
Species.IV.Das.Erwachen.2007...
Species.IV.Das.Erwachen.2007...
Hotel.Transsilvanien.2012.Ge...
The.Dead.2010.German.DL.1080...
The.Dead.2.India.2013.German...
Britney.Spears.Live.The.Femm...
Buffy.The.Vampire.Slayer.199...

Filme
Vive.la.France.gesprengt.wir...
Killers.2014.German.DTS.1080...
Killers.2014.German.DTS.720p...
Jeepers.Creepers.2.GERMAN.20...
Jeepers.Creepers.2.GERMAN.20...
The.Walking.Dead.S09.GERMAN....
Marvels.Inhumans.S01.German....
Marvels.Inhumans.S01.German....
Homeland.S07.COMPLETE.German...
Homeland.S07.COMPLETE.German...
So.wie.wir.waren.1973.German...
Strasse.der.Gewalt.1975.Germ...
Strasse.der.Gewalt.1975.Germ...
Squirm.Invasion.der.Bestien....
Squirm.Invasion.der.Bestien....
Africa.addio.German.1966.DL....
Africa.addio.German.1966.DL....
Nell.1994.German.720p.BluRay...
Mission.Impossible.Fallout.2...
Our.Evil.2017.GERMAN.DL.1080...
The.Birdcage.-.Ein.Paradies....
The.Birdcage.Ein.Paradies.fu...
Sein.letzter.Kampf.aka.Last....
Faustrecht.Terror.an.der.Hig...

 
 
Vive.la.France.gesprengt.wird.spaeter.2013.German.AC3.DL.1080p.BluRay.x265-FuN

Jahr: 2013
Genre: Komödie
Sprache: Deutsch AC3 | Englisch AC3
Laufzeit: 1h 37mn
Bitrate: 4 599 Kbps
Format: MKV
Größe: 3.13 GiB
Release:

Beschreibung:

Damit das Land Taboulistan bekannt wird, schickt der Diktator zwei unbedarfte Ziegenhirten nach Paris, um als Selbstmordattentäter den Eifelturm in die Luft zu sprengen. Das Flugzeug landet durch einen Zufall in Korsika. Auf ihrem schwierigen Trip in die Hauptstadt erlebt das Duo ziemlich durchgeknallte und unfreundliche Einheimische, bis ihnen eine junge Journalistin ihre Heimat von einer ganz anderen Seite zeigt, sodass sie sich über ihre tödlichen Pläne noch einmal Gedanken machen.




Format version                           : Version 4 / Version 2
File size                                : 3.13 GiB
Duration                                 : 1h 37mn
Overall bit rate                         : 4 599 Kbps
Movie name                               : Vive.la.France.RMX
Encoded date                             : UTC 2018-11-25 08:33:26
Writing application                      : mkvmerge v28.2.0 ('The Awakening') 64-bit
Writing library                          : libebml v1.3.6 + libmatroska v1.4.9

Video
ID                                       : 1
Format                                   : HEVC
Format/Info                              : High Efficiency Video Coding
Format profile                           : Main@L4.0
Codec ID                                 : V_MPEGH/ISO/HEVC
Duration                                 : 1h 37mn
Bit rate                                 : 3 739 Kbps
Width                                    : 1 920 pixels
Height                                   : 800 pixels
Display aspect ratio                     : 2.40:1
Frame rate mode                          : Constant
Frame rate                               : 23.976 fps
Color space                              : YUV
Chroma subsampling                       : 4:2:0
Bit depth                                : 8 bits
Bits/(Pixel*Frame)                       : 0.102
Stream size                              : 2.54 GiB (81%)
Writing library                          : x265 2.6:[Linux][GCC 6.4.0][64 bit] 8bit+10bit+12bit
Encoding settings                        : cpuid=1173503 / frame-threads=3 / wpp / no-pmode / no-pme / no-psnr / no-ssim / log-level=2 / input-csp=1 / input-res=1920x800 / interlace=0 / total-frames=0 / level-idc=0 / high-tier=1 / uhd-bd=0 / ref=2 / no-allow-non-conformance / no-repeat-headers / annexb / no-aud / no-hrd / info / hash=0 / no-temporal-layers / open-gop / min-keyint=24 / keyint=240 / bframes=4 / b-adapt=0 / b-pyramid / bframe-bias=0 / rc-lookahead=15 / lookahead-slices=5 / scenecut=40 / no-intra-refresh / ctu=64 / min-cu-size=8 / no-rect / no-amp / max-tu-size=32 / tu-inter-depth=1 / tu-intra-depth=1 / limit-tu=0 / rdoq-level=0 / dynamic-rd=0.00 / no-ssim-rd / signhide / no-tskip / nr-intra=0 / nr-inter=0 / no-constrained-intra / no-strong-intra-smoothing / max-merge=2 / limit-refs=3 / no-limit-modes / me=1 / subme=2 / merange=57 / temporal-mvp / weightp / no-weightb / no-analyze-src-pics / deblock=0:0 / sao / no-sao-non-deblock / rd=2 / early-skip / rskip / fast-intra / no-tskip-fast / no-cu-lossless / no-b-intra / no-splitrd-skip / rdpenalty=0 / psy-rd=2.00 / psy-rdoq=0.00 / no-rd-refine / analysis-reuse-mode=0 / no-lossless / cbqpoffs=0 / crqpoffs=0 / rc=crf / crf=20.0 / qcomp=0.60 / qpstep=4 / stats-write=0 / stats-read=0 / ipratio=1.40 / pbratio=1.30 / aq-mode=1 / aq-strength=1.00 / cutree / zone-count=0 / no-strict-cbr / qg-size=32 / no-rc-grain / qpmax=69 / qpmin=0 / no-const-vbv / sar=1 / overscan=0 / videoformat=5 / range=0 / colorprim=1 / transfer=1 / colormatrix=1 / chromaloc=0 / display-window=0 / max-cll=0,0 / min-luma=0 / max-luma=255 / log2-max-poc-lsb=8 / vui-timing-info / vui-hrd-info / slices=1 / no-opt-qp-pps / no-opt-ref-list-length-pps / no-multi-pass-opt-rps / scenecut-bias=0.05 / no-opt-cu-delta-qp / no-aq-motion / no-hdr / no-hdr-opt / no-dhdr10-opt / analysis-reuse-level=5 / scale-factor=0 / refine-intra=0 / refine-inter=0 / refine-mv=0 / no-limit-sao / ctu-info=0 / no-lowpass-dct / refine-mv-type=0 / copy-pic=1
Default                                  : Yes
Forced                                   : No
DURATION                                 : 01:37:21.086000000
NUMBER_OF_FRAMES                         : 140046
NUMBER_OF_BYTES                          : 2790730872
_STATISTICS_WRITING_APP                  : mkvmerge v28.2.0 ('The Awakening') 64-bit
_STATISTICS_WRITING_DATE_UTC             : 2018-11-25 08:33:26
_STATISTICS_TAGS                         : BPS DURATION NUMBER_OF_FRAMES NUMBER_OF_BYTES

Audio #1
ID                                       : 2
Format                                   : AC-3
Format/Info                              : Audio Coding 3
Mode extension                           : CM (complete main)
Format settings, Endianness              : Big
Codec ID                                 : A_AC3
Duration                                 : 1h 37mn
Bit rate mode                            : Constant
Bit rate                                 : 384 Kbps
Channel(s)                               : 6 channels
Channel positions                        : Front: L C R, Side: L R, LFE
Sampling rate                            : 48.0 KHz
Bit depth                                : 16 bits
Compression mode                         : Lossy
Stream size                              : 267 MiB (8%)
Title                                    : Surround
Language                                 : German
Default                                  : Yes
Forced                                   : No
DURATION                                 : 01:37:21.280000000
NUMBER_OF_FRAMES                         : 182540
NUMBER_OF_BYTES                          : 280381440
_STATISTICS_WRITING_APP                  : mkvmerge v28.2.0 ('The Awakening') 64-bit
_STATISTICS_WRITING_DATE_UTC             : 2018-11-25 08:33:26
_STATISTICS_TAGS                         : BPS DURATION NUMBER_OF_FRAMES NUMBER_OF_BYTES

Audio #2
ID                                       : 3
Format                                   : AC-3
Format/Info                              : Audio Coding 3
Mode extension                           : CM (complete main)
Format settings, Endianness              : Big
Codec ID                                 : A_AC3
Duration                                 : 1h 37mn
Bit rate mode                            : Constant
Bit rate                                 : 384 Kbps
Channel(s)                               : 6 channels
Channel positions                        : Front: L C R, Side: L R, LFE
Sampling rate                            : 48.0 KHz
Bit depth                                : 16 bits
Compression mode                         : Lossy
Stream size                              : 267 MiB (8%)
Title                                    : Surround
Language                                 : French
Default                                  : No
Forced                                   : No
DURATION                                 : 01:37:21.280000000
NUMBER_OF_FRAMES                         : 182540
NUMBER_OF_BYTES                          : 280381440
_STATISTICS_WRITING_APP                  : mkvmerge v28.2.0 ('The Awakening') 64-bit
_STATISTICS_WRITING_DATE_UTC             : 2018-11-25 08:33:26
_STATISTICS_TAGS                         : BPS DURATION NUMBER_OF_FRAMES NUMBER_OF_BYTES



Download:
Share Online Share OnlineShare OnlineShare Online
 

Kommentare