Filecrypt zeigt vereinzelt Files als "n/a". Die Downloads sind trotzdem komplett.

DNS SERVER AENDERNum der staatlichen Zensur zu umgehen. Sollten wir von eurem Provider geseprrt werden, nutzt den TOR BROWSER oder ändert euren DNS SERVER.

Filmwünsche können bei uns im Forum abgegeben werden

Wir Speichern Nicht




 
 
 
Top Releases
Christopher.Robin.2018.Germa...
Christopher.Robin.2018.Germa...
Pin.Cushion.2017.German.720p...
Pin.Cushion.2017.German.DL.1...
Z.for.Zachariah.2015.German....
Monsieur.Claude.und.seine.To...
House.of.Sand.and.Fog.2003.G...
Hotel.Transsilvanien.3.Ein.M...
Hotel.Transsilvanien.3.Ein.M...
Jim.Knopf.und.Lukas.der.Loko...

Cinedubs
Freaky.Friday.German.DL.AC3....
Freaky.Friday.German.DL.AC3....
Jupiters.Moon.2017.GERMAN.AC...
Jupiters.Moon.2017.GERMAN.AC...
Venom.German.DL.AC3.Dubbed.1...
Venom.German.DL.AC3.Dubbed.7...
Das.Haus.der.geheimnisvollen...
Das.Haus.der.geheimnisvollen...
Venom.TS.LD.German.720p.x264...
Predator.Upgrade.German.AC3L...

Neuerscheinungen 2017-18
Boarding.School.2018.German....
Liliane.Susewind.Ein.tierisc...
Liliane.Susewind.Ein.tierisc...
Unhinged.2017.COMPLETE.BLURA...
Unhinged.Verstoert.und.Ausge...
Unhinged.Verstoert.und.Ausge...
School.Daze.1988.COMPLETE.BL...
Megalodon.2018.COMPLETE.BLUR...
Megalodon.Die.Bestie.aus.der...
Megalodon.Die.Bestie.aus.der...

XXX
Naughty.3.Somes.13.XXX.720p....
Naughty.3.Somes.13.XXX.1080p...
Hitzefrei.18.07.02.Sina.Velv...
PornFidelity.E769.Layla.Love...
Hegre.18.11.20.Nuna.Nude.In....
PublicAgent.18.11.20.May.Tha...
PornMegaLoad.18.11.19.Brandy...
Hitzefrei.18.07.04.Texas.Pat...
Private.18.11.19.Dolly.Diore...
Nubiles.18.11.20.Sophie.Spar...
PornMegaLoad.18.11.18.Lexi.S...
PublicPickUps.18.11.20.Jazmi...
POVLife.18.11.19.Riley.Star....
PlayboyPlus.18.11.19.Anetta....
Private.18.11.20.Jessica.Lin...
SapphicErotica.18.11.19.Anai...
PornstarsLikeItBig.18.11.19....
GloryHole.18.11.19.Barbie.Si...
PlumperPass.18.11.19.Alexxxi...
RKPrime.18.11.19.Brett.Rossi...

3D
The.Art.of.Flight.3D.2011.Ge...
The.End.Of.The.World.3D.2010...
The.First.Avenger.Civil.War....
Die.Unglaublichen.2.2018.3D....
Skyscraper.3D.2018.MULTi.COM...
Ant-Man.And.The.Wasp.3D.2018...
Ant.Man.and.the.Wasp.3D.2018...
Die.Unglaublichen.2.3D.2018....
Die.Unglaublichen.2.2018.3D....
Die.Unglaublichen.2.2018.3D....
Sharknado.6.The.Last.One.3D....
Deep.Kleine.Helden.der.Tiefs...
Deep.3D.2017.MULTI.COMPLETE....
Detective.Dee.und.die.Legend...
Detective.Dee.und.die.Legend...

Old_Stuff
Akte.X.S03.German.DTS.DL.108...
Dunkirk.1958.COMPLETE.BLURAY...
Das.Wunder.von.Manhattan.199...
The.Amazing.Spiderman.2.Rise...
Rise.of.the.Predator.2014.Ge...
Detective.Dee.und.das.Geheim...
Detective.Dee.Und.Der.Fluch....
Ghost.Rider.Spirit.of.Vengea...
Species.IV.Das.Erwachen.2007...
Species.IV.Das.Erwachen.2007...
Hotel.Transsilvanien.2012.Ge...
The.Dead.2010.German.DL.1080...
The.Dead.2.India.2013.German...
Britney.Spears.Live.The.Femm...
Buffy.The.Vampire.Slayer.199...

Filme
The.Deuce.S02.COMPLETE.Germa...
Hotel.Transsilvanien.3.Ein.M...
Star.Trek.Discovery.S01.COMP...
Dinosaurier.Im.Reich.der.Gig...
The.Good.Doctor.S02.German.D...
The.Good.Doctor.S02.German.D...
Poldark.2015.S04.German.DL.D...
Poldark.2015.S04.German.DL.D...
Wrecked.S03.GERMAN.DUBBED.72...
Our.Evil.2017.German.AC3.DL....
Hass.aka.La.Haine.1995.Germa...
The.Game.1997.German.DL.1080...
Versus.The.Final.Knockout.20...
Hoelle.Afghanistan.2011.Germ...
Hoffnung.und.Ruhm.1987.Germa...
Sicario.2.Soldado.2018.Germa...
Skin.Creepers.2018.German.AC...
Auch.Voegel.koennen.toeten.1...
Roter.Drache.2002.German.DL....
Sicario.2.Soldado.2018.Germa...
Mondsuechtig.1987.German.AC3...
Baron.Noir.S02D01-2.MULTi.CO...
Stirb.Langsam.2.1990.DTS-HD....
Ash.vs.Evil.Dead.S02D01-2.MU...

 
 
Freaky.Friday.German.DL.AC3.1080p.WEB.h264-PsO

Jahr: 2018
Genre: Komödie, Fantasy
Sprache: Deutsch AC3 | Englisch AC3
Laufzeit: 1h 30mn
Bitrate: 5 897 Kbps
Format: MKV
Größe: 3.74 GiB
Release:

Beschreibung:

Mutter Katherine und Tochter Ellie können sich beide nicht vorstellen, warum eigentlich genau das Leben des anderen gerade so stressig sein soll – aber dank eines magischen Zwischenfalls bekommen beide die Chance dazu, als sie plötzlich im Körper des jeweils anderen aufwachen…



Complete name                            : pso-freakyfriday_web.1080p.mkv
Format                                   : Matroska
Format version                           : Version 4 / Version 2
File size                                : 3.74 GiB
Duration                                 : 1h 30mn
Overall bit rate                         : 5 897 Kbps
Encoded date                             : UTC 2018-11-28 19:43:05
Writing application                      : mkvmerge v8.3.0 ('Over the Horizon') 64bit
Writing library                          : libebml v1.3.1 + libmatroska v1.4.2
DURATION                                 : 01:29:54.061000000
NUMBER_OF_FRAMES                         : 473
NUMBER_OF_BYTES                          : 21607
_STATISTICS_WRITING_APP                  : mkvmerge v8.3.0 ('Over the Horizon') 64bit
_STATISTICS_WRITING_DATE_UTC             : 2018-11-28 19:43:05
_STATISTICS_TAGS                         : BPS DURATION NUMBER_OF_FRAMES NUMBER_OF_BYTES

Video
ID                                       : 1
Format                                   : AVC
Format/Info                              : Advanced Video Codec
Format profile                           : High@L4.0
Format settings, CABAC                   : Yes
Format settings, ReFrames                : 4 frames
Codec ID                                 : V_MPEG4/ISO/AVC
Duration                                 : 1h 30mn
Bit rate                                 : 5 011 Kbps
Width                                    : 1 916 pixels
Height                                   : 1 076 pixels
Display aspect ratio                     : 16:9
Frame rate mode                          : Constant
Frame rate                               : 23.976 fps
Color space                              : YUV
Chroma subsampling                       : 4:2:0
Bit depth                                : 8 bits
Scan type                                : Progressive
Bits/(Pixel*Frame)                       : 0.101
Stream size                              : 3.18 GiB (85%)
Language                                 : English
Default                                  : Yes
Forced                                   : No
Color primaries                          : BT.709
Transfer characteristics                 : BT.709
Matrix coefficients                      : BT.709

Audio #1
ID                                       : 2
Format                                   : AC-3
Format/Info                              : Audio Coding 3
Mode extension                           : CM (complete main)
Format settings, Endianness              : Big
Codec ID                                 : A_AC3
Duration                                 : 1h 30mn
Bit rate mode                            : Constant
Bit rate                                 : 384 Kbps
Channel(s)                               : 6 channels
Channel positions                        : Front: L C R, Side: L R, LFE
Sampling rate                            : 48.0 KHz
Bit depth                                : 16 bits
Compression mode                         : Lossy
Stream size                              : 249 MiB (7%)
Language                                 : German
Default                                  : Yes
Forced                                   : Yes

Audio #2
ID                                       : 3
Format                                   : AC-3
Format/Info                              : Audio Coding 3
Mode extension                           : CM (complete main)
Format settings, Endianness              : Big
Codec ID                                 : A_AC3
Duration                                 : 1h 30mn
Bit rate mode                            : Constant
Bit rate                                 : 384 Kbps
Channel(s)                               : 6 channels
Channel positions                        : Front: L C R, Side: L R, LFE
Sampling rate                            : 48.0 KHz
Bit depth                                : 16 bits
Compression mode                         : Lossy
Stream size                              : 249 MiB (7%)
Language                                 : English
Default                                  : No
Forced                                   : No

Text
ID                                       : 4
Format                                   : UTF-8
Codec ID                                 : S_TEXT/UTF8
Codec ID/Info                            : UTF-8 Plain Text
Language                                 : German
Default                                  : Yes
Forced                                   : Yes


Download:
Share Online Share OnlineShare OnlineShare Online
 

Kommentare